That's How we build a house [repost]

Category: Technical

Tag: Science/Engineering


Posted on 2012-02-29. By anonymous.

Description


That's How we build a house
VOB | MPEG2 8272kbps | English, Spanish | 720x480 | 29.97fps | AC3 stereo 224kbps | 1.78 GB
Genre: Video Training

See an actual house being built from the ground up. Watch surveyors, architects, carpenters, electricians, plumbers, bricklayers and other tradesmen at work while Gwen and Danny explain what they're doing.

Mediainfo:

Format : MPEG-PS
File size : 1 024 MiB
Duration : 15mn 22s
Overall bit rate : 9 314 Kbps
Video #224
ID : 224 (0xE0)
Format : MPEG Video
Format version : Version 2
Format profile : Main@Main
Format settings, Matrix : Default
Duration : 15mn 22s
Bit rate mode : Constant
Bit rate : 8 272 Kbps
Nominal bit rate : 8 500 Kbps
Width : 720 pixels
Height : 480 pixels
Display aspect ratio : 4:3
Frame rate : 29.970 fps
Standard : NTSC
Colorimetry : 4:2:0
Scan type : Interlaced
Scan order : Top Field First
Bits/(Pixel*Frame) : 0.799
Stream size : 909 MiB (89%)
Audio #128
ID : 128 (0x80)
Format : AC-3
Format/Info : Audio Coding 3
Duration : 15mn 21s
Bit rate mode : Constant
Bit rate : 224 Kbps
Channel(s) : 2 channels
Channel positions : L R
Sampling rate : 48.0 KHz
Stream size : 24.6 MiB (2%)
Audio #129
ID : 129 (0x81)
Format : AC-3
Format/Info : Audio Coding 3
Duration : 15mn 21s
Bit rate mode : Constant
Bit rate : 224 Kbps
Channel(s) : 2 channels
Channel positions : L R
Sampling rate : 48.0 KHz
Stream size : 24.6 MiB (2%)
Audio #130
ID : 130 (0x82)
Format : AC-3
Format/Info : Audio Coding 3
Duration : 15mn 21s
Bit rate mode : Constant
Bit rate : 224 Kbps
Channel(s) : 2 channels
Channel positions : L R
Sampling rate : 48.0 KHz
Stream size : 24.6 MiB (2%)
Text #32
ID : 32 (0x20)
Format : RLE
Format/Info : Run-length encoding








No mirrors please

Visit my blog, click here


Sponsored High Speed Downloads
5536 dl's @ 2335 KB/s
Download Now [Full Version]
7069 dl's @ 3413 KB/s
Download Link 1 - Fast Download
8547 dl's @ 3705 KB/s
Download Mirror - Direct Download



Search More...
That's How we build a house [repost]

Search free ebooks in ebookee.com!


Links
Download this book

No active download links here?
Please check the description for download links if any or do a search to find alternative books.


Related Books


Comments

No comments for "That's How we build a house [repost]".


    Add Your Comments
    1. Download links and password may be in the description section, read description carefully!
    2. Do a search to find mirrors if no download links or dead links.
    Back to Top