Doctor Who The Day Of The Doctor 3D 2013 1080p BRRip AC3 x264 H SBS Temporal

Category: Entertainment


Posted on 2013-11-28, by interestinglike.

Description



Doctor Who The Day Of The Doctor 3D 2013 1080p BRRip AC3 x264 H SBS Temporal
| 3.51 GB
File: Doctor Who The Day Of The Doctor 3D 2013 1080p BRRip AC3 x264 H SBS Temporal.mkv
Size: 3723249957 bytes (3.47 GiB), duration: 01:16:50, avg.bitrate: 6461 kb/s
Audio: ac3, 48000 Hz, 5:1 (eng)
Video: h264, yuv420p, 1920x1080, 23.98 fps(r) (eng)
File: Doctor Who The Day Of The Doctor 3D 2013 1080p BRRip AC3 x264 H SBS Temporal Preview.mkv
Size: 48679622 bytes (46.42 MiB), duration: 00:01:00, avg.bitrate: 6491 kb/s
Audio: ac3, 48000 Hz, 5:1 (eng)
Video: h264, yuv420p, 1920x1080, 23.98 fps(r) (eng)

iMDB iNFO


In 2013, something terrible is awakening in London's National Gallery; in 1562, a murderous Description is afoot in Elizabethan England; and somewhere in space an ancient battle reaches its devastating conclusion.

Title: Doctor Who The Day of the Doctor
Year:2013
Rating:9.4
Genre:Adventure / Drama / Family
Director:Nick Hurran
Cast:Matt Smith / David Tennant / Christopher Eccleston / John Hurt / Paul McGann / Sylvester McCoy / Colin Baker / Peter Davison / Tom Baker / Jon Pertwee / Patrick Troughton / William Hartnell / Jenna Coleman / Billie Piper / Tristan Beint



NFo
________ ______
___ __/___________ ______________________________ ___ /
__ / _ _ \_ __ `__ \__ __ \ __ \_ ___/ __ `/_ /
_ / / __/ / / / / /_ /_/ / /_/ / / / /_/ /_ /
/_/ \___//_/ /_/ /_/_ .___/\____//_/ \__,_/ /_/
/_/
Doctor Who The Day Of The Doctor 3D 2013 1080p BRRip AC3 x264 H SBS Temporal
______ ___ _____________ ________ ________
___ |/ /__________ /__(_)_____ _ ____ _/_________ __/_____
__ /|_/ /_ _ \ __ /__ /_ __ `/ __ / __ __ \_ /_ _ __ \
_ / / / / __/ /_/ / _ / / /_/ / __/ / _ / / / __/ / /_/ /
/_/ /_/ \___/\__,_/ /_/ \__,_/ /___/ /_/ /_//_/ \____/
Format : Matroska
Format version : Version 2
File size : 3.47 GiB
Duration : 1h 16mn
Overall bit rate : 6 461 Kbps
Writing application : HandBrake 0.9.9
Writing library : libmkv 0.6.5
Video
ID : 1
Format : AVC
Format/Info : Advanced Video Codec
Format profile : [emailprotected]/* */
Format settings, CABAC : Yes
Format settings, ReFrames : 6 frames
Codec ID : V_MPEG4/ISO/AVC
Duration : 1h 16mn
Bit rate : 6 200 Kbps
Width : 1 920 pixels
Height : 1 080 pixels
Display aspect ratio : 16:9
Frame rate mode : Constant
Frame rate : 23.976 fps
Color space : YUV
Chroma subsampling : 4:2:0
Bit depth : 8 bits
Scan type : Progressive
Bits/(Pixel*Frame) : 0.125
Stream size : 3.26 GiB (94%)
Writing library : x264 core 130 r2273 b3065e6
Language : English
Default : Yes
Forced : No
Color primaries : BT.709
Transfer characteristics : BT.709
Matrix coefficients : BT.709
Audio
ID : 2
Format : AC-3
Format/Info : Audio Coding 3
Mode extension : CM (complete main)
Format settings, Endianness : Big
Codec ID : A_AC3
Duration : 1h 16mn
Bit rate mode : Constant
Bit rate : 256 Kbps
Channel(s) : 6 channels
Channel positions : Front: L C R, Side: L R, LFE
Sampling rate : 48.0 KHz
Bit depth : 16 bits
Compression mode : Lossy
Stream size : 141 MiB (4%)
Language : English
Default : Yes
Forced : No
________ _____ __________
___ __ \___________________________(_)_________ /___(_)____________
__ / / / _ \_ ___/ ___/_ ___/_ /___ __ \ __/_ /_ __ \_ __ \
_ /_/ // __/(__ )/ /__ _ / _ / __ /_/ / /_ _ / / /_/ / / / /
/_____/ \___//____/ \___/ /_/ /_/ _ .___/\__/ /_/ \____//_/ /_/
/_/
TV Episode - 77 min - Adventure | Drama | Family
In 2013, something terrible is awakening in London's National Gallery; in 1562, a murderous Description is afoot in Elizabethan England; and somewhere in space an ancient battle reaches its devastating conclusion.
IMDB Link: http://www.imdb.com/title/tt2779318/?ref_=fn_al_tt_1
_____ __ _____
___ | / /_______ /_____________
__ |/ /_ __ \ __/ _ \_ ___/
_ /| / / /_/ / /_ / __/(__ )
/_/ |_/ \____/\__/ \___//____/
Source(s) Encoder: NTb! - Thank You!
Respect to all the hard working Groups out there that make this a possibility!
Your work is always valued !!*=-

Download link:
SecureUpload:
http://www.secureupload.eu/qyygrepqobt3/w1sli.Doctor.Who.The.Day.Of.The.Doctor.3D.2013.1080p.BRRip.AC3.x264.H.SBS.Temporal.part1.rar
http://www.secureupload.eu/fyjgtuev85s1/w1sli.Doctor.Who.The.Day.Of.The.Doctor.3D.2013.1080p.BRRip.AC3.x264.H.SBS.Temporal.part2.rar
http://www.secureupload.eu/lq3voeuk7cd2/w1sli.Doctor.Who.The.Day.Of.The.Doctor.3D.2013.1080p.BRRip.AC3.x264.H.SBS.Temporal.part3.rar
http://www.secureupload.eu/irv42elb7961/w1sli.Doctor.Who.The.Day.Of.The.Doctor.3D.2013.1080p.BRRip.AC3.x264.H.SBS.Temporal.part4.rar

RapidGator:
http://rapidgator.net/file/b436199f13054a744a6b58ee144c2dca/w1sli.Doctor.Who.The.Day.Of.The.Doctor.3D.2013.1080p.BRRip.AC3.x264.H.SBS.Temporal.part1.rar.html
http://rapidgator.net/file/389d1428b0dda7783ad18cf8e5bc6cf5/w1sli.Doctor.Who.The.Day.Of.The.Doctor.3D.2013.1080p.BRRip.AC3.x264.H.SBS.Temporal.part2.rar.html
http://rapidgator.net/file/2670d0c9363d47b8573a2057aed34635/w1sli.Doctor.Who.The.Day.Of.The.Doctor.3D.2013.1080p.BRRip.AC3.x264.H.SBS.Temporal.part3.rar.html
http://rapidgator.net/file/04aa645357c412c6182dfed93f3a46f0/w1sli.Doctor.Who.The.Day.Of.The.Doctor.3D.2013.1080p.BRRip.AC3.x264.H.SBS.Temporal.part4.rar.html

RyuShare:
http://ryushare.com/zog1syqwhksg/w1sli.Doctor.Who.The.Day.Of.The.Doctor.3D.2013.1080p.BRRip.AC3.x264.H.SBS.Temporal.part1.rar
http://ryushare.com/uljaijwb4zov/w1sli.Doctor.Who.The.Day.Of.The.Doctor.3D.2013.1080p.BRRip.AC3.x264.H.SBS.Temporal.part2.rar
http://ryushare.com/5n648678rk7r/w1sli.Doctor.Who.The.Day.Of.The.Doctor.3D.2013.1080p.BRRip.AC3.x264.H.SBS.Temporal.part3.rar
http://ryushare.com/6xu8tltqy08s/w1sli.Doctor.Who.The.Day.Of.The.Doctor.3D.2013.1080p.BRRip.AC3.x264.H.SBS.Temporal.part4.rar

Uploaded:
http://uploaded.net/file/52me3415/w1sli.Doctor.Who.The.Day.Of.The.Doctor.3D.2013.1080p.BRRip.AC3.x264.H.SBS.Temporal.part1.rar
http://uploaded.net/file/4arscv81/w1sli.Doctor.Who.The.Day.Of.The.Doctor.3D.2013.1080p.BRRip.AC3.x264.H.SBS.Temporal.part2.rar
http://uploaded.net/file/fs1cjvyt/w1sli.Doctor.Who.The.Day.Of.The.Doctor.3D.2013.1080p.BRRip.AC3.x264.H.SBS.Temporal.part3.rar
http://uploaded.net/file/pjzrsdpp/w1sli.Doctor.Who.The.Day.Of.The.Doctor.3D.2013.1080p.BRRip.AC3.x264.H.SBS.Temporal.part4.rar

TurboBit:
http://turbobit.net/74jss3rdfyxn/w1sli.Doctor.Who.The.Day.Of.The.Doctor.3D.2013.1080p.BRRip.AC3.x264.H.SBS.Temporal.part1.rar.html
http://turbobit.net/f2bbhv189m6x/w1sli.Doctor.Who.The.Day.Of.The.Doctor.3D.2013.1080p.BRRip.AC3.x264.H.SBS.Temporal.part2.rar.html
http://turbobit.net/0oxqlucvuemz/w1sli.Doctor.Who.The.Day.Of.The.Doctor.3D.2013.1080p.BRRip.AC3.x264.H.SBS.Temporal.part3.rar.html
http://turbobit.net/0s01i8ygmc8z/w1sli.Doctor.Who.The.Day.Of.The.Doctor.3D.2013.1080p.BRRip.AC3.x264.H.SBS.Temporal.part4.rar.html

Links are Interchangeable - No Password - Single Extraction

Sponsored High Speed Downloads
7709 dl's @ 2712 KB/s
Download Now [Full Version]
7427 dl's @ 2072 KB/s
Download Link 1 - Fast Download
5347 dl's @ 3308 KB/s
Download Mirror - Direct Download



Search More...
Doctor Who The Day Of The Doctor 3D 2013 1080p BRRip AC3 x264 H SBS Temporal

Search free ebooks in ebookee.com!


Links
Download this book

No active download links here?
Please check the description for download links if any or do a search to find alternative books.


Related Books


Comments

No comments for "Doctor Who The Day Of The Doctor 3D 2013 1080p BRRip AC3 x264 H SBS Temporal".


    Add Your Comments
    1. Download links and password may be in the description section, read description carefully!
    2. Do a search to find mirrors if no download links or dead links.
    Back to Top