Coursera Virology II How Viruses Cause Disease

Category: Tutorial

Tag: Database/SQL


Posted on 2020-05-15, by nokia241186.

Description


e5cdda6d4eb613cbc649cb5904362ea0.jpg

Coursera - Virology II: How Viruses Cause Disease
WEBRip | English | MP4 | 960 x 540 | VP8 ~670 kbps | 25 fps
Vorbis | 128 Kbps | 48.0 KHz | 2 channels | 04:12:58 | 2 GB
Genre: eLearning Video / Science, Biology and Genetics
Introductory virology course that covers the interplay between viruses and their host organisms, with with the goal of understanding viral diseases and their prevention.



This introductory virology course explores the interplay between viruses and their host organisms. The course begins with an overview of how infection is established in a host, then moves to a virologist's view of immune defenses. Next we consider how the replication strategy and the host response determine the outcome of infection, such that some are short and others are of long duration. The mechanisms by which virus infections transform cells in culture are explored, a process that may lead to tumor formation in animals. We then move to a discussion of how viral infections are controlled by vaccines and antiviral drugs. After an introduction to viral evolution, we discuss the principles learned from zoonotic infections, emerging infections, and humankind's experiences with epidemic and pandemic viral infections. The course ends with an exploration of unusual infectious agents such as viroids, satellites, and prions, followed by a discussion of the causative agent of the most serious current worldwide epidemic, HIV-1.

Course Syllabus

Week 1
- Infection basics
- Entry into the host
- Viral spread
- Tissue invasion and tropism
- Transmission and seasonality

Week 2
- Innate immune responses
- Interferon
- Sentinels and complement
- Inflammation
- Adaptive immunity

Week 3
- Viral virulence
- Mechanisms of cell injury I
- Mechanisms of cell injury II
- Host susceptibility

Week 4
- Acute infections
- Influenza
- Poliomyelitis
- Measles
- Gastroenteritis
- West Nile fever

Week 5
- Persistent infections
- Persistence by modulating the adaptive response
- Two persistent infections
- Herpes simplex virus
- Epstein-Barr virus

Week 6
- Transformation
- RNA tumor viruses
- Transforming retroviruses
- DNA tumor viruses
- Epiphenomena of a unique life style

Week 7
- Vaccines
- How do you make a vaccine?
- Inactivated vaccines
- Attenuated vaccines

Week 8
- Antivirals
- Antiviral discovery
- Antiviral resistance
- Other antiviral targets
- HIV antivirals

Week 9
- Viral evolution
- Drivers of evolution
- Error threshold and bottlenecks
- Selection
- Origins of viruses

Week 10
- Emerging viruses
- Host-virus interactions
- Examples of emerging viruses
- SARS and MERS
- Canine parvovirus

Week 11
- Viroids
- Satellites
- Transmissible spongiform encephalopathies
- Prions

Week 12
- HIV and AIDS
- The origin of HIV
- HIV pathogenesis
- An amazing but deadly virus

General
Unique ID : 325341937123168163862056155027493147851 (0xF4C293F067CADB2F1E4671D8F4ACD4CB)
Complete name :How Viruses Cause Disease W12 Introduction.mp4
Format : WebM
Format version : Version 2
File size : 14.8 MiB
Duration : 2mn 27s
Overall bit rate mode : Variable
Overall bit rate : 840 Kbps
Writing application : Lavf55.10.100
Writing library : Lavf55.10.100

Video
ID : 1
Format : VP8
Codec ID : V_VP8
Duration : 2mn 27s
Bit rate : 670 Kbps
Width : 960 pixels
Height : 540 pixels
Display aspect ratio : 16:9
Frame rate mode : Constant
Frame rate : 25.000 fps
Compression mode : Lossy
Bits/(Pixel*Frame) : 0.052
Stream size : 11.8 MiB (80%)
Language : English
Default : Yes
Forced : No

Audio
ID : 2
Format : Vorbis
Format settings, Floor : 1
Codec ID : A_VORBIS
Duration : 2mn 27s
Bit rate mode : Variable
Bit rate : 128 Kbps
Maximum bit rate : 700 Kbps
Channel(s) : 2 channels
Sampling rate : 48.0 KHz
Compression mode : Lossy
Delay relative to video : -43ms
Stream size : 2.26 MiB (15%)
Writing library : libVorbis (Schaufenugget) (20101101 (Schaufenugget))
Language : English
Default : Yes
Forced : No
Writing application : Lavc55.17.100

Screenshots

bc8e6751befb2cb5e29e830893f09697.jpg

85ad832d5f1853a961fa9c573e7d666a.jpg

c87d78c7e6d0c04c30201554ba148677.jpg
DOWNLOAD
(Buy premium account for maximum speed and resuming ability)


http://nitroflare.com/view/C969FBD492E93CA/orxxe.Coursera..Virology.II.How.Viruses.Cause.Disease.part01.rar
http://nitroflare.com/view/903DC43C3D82016/orxxe.Coursera..Virology.II.How.Viruses.Cause.Disease.part02.rar
http://nitroflare.com/view/B3BE8693B7366FF/orxxe.Coursera..Virology.II.How.Viruses.Cause.Disease.part03.rar
http://nitroflare.com/view/D75F177D1AD044C/orxxe.Coursera..Virology.II.How.Viruses.Cause.Disease.part04.rar
http://nitroflare.com/view/1892EC88BCEEB6F/orxxe.Coursera..Virology.II.How.Viruses.Cause.Disease.part05.rar
http://nitroflare.com/view/56548D1F1432037/orxxe.Coursera..Virology.II.How.Viruses.Cause.Disease.part06.rar
http://nitroflare.com/view/B9D4181DAB14912/orxxe.Coursera..Virology.II.How.Viruses.Cause.Disease.part07.rar
http://nitroflare.com/view/41388C926B52231/orxxe.Coursera..Virology.II.How.Viruses.Cause.Disease.part08.rar
http://nitroflare.com/view/639AFE98EC54B43/orxxe.Coursera..Virology.II.How.Viruses.Cause.Disease.part09.rar



https://rapidgator.net/file/e70ec6b4f7364449086aca223ad65b17/orxxe.Coursera..Virology.II.How.Viruses.Cause.Disease.part01.rar
https://rapidgator.net/file/a15dfe39ba44cfe3fce8e778ba09d6e0/orxxe.Coursera..Virology.II.How.Viruses.Cause.Disease.part02.rar
https://rapidgator.net/file/ab5ae8f4cc189cb1fd8a2e113501daaf/orxxe.Coursera..Virology.II.How.Viruses.Cause.Disease.part03.rar
https://rapidgator.net/file/99cba8564cf1d510e0a18e7e0a7e57b6/orxxe.Coursera..Virology.II.How.Viruses.Cause.Disease.part04.rar
https://rapidgator.net/file/896b28ba82be9297480be0a1f0a45b59/orxxe.Coursera..Virology.II.How.Viruses.Cause.Disease.part05.rar
https://rapidgator.net/file/e074b3049b0e24c3066f17e0e5ef926b/orxxe.Coursera..Virology.II.How.Viruses.Cause.Disease.part06.rar
https://rapidgator.net/file/c5e44a194d2b6f5f975dc02131fc3b82/orxxe.Coursera..Virology.II.How.Viruses.Cause.Disease.part07.rar
https://rapidgator.net/file/2da60179ec414c91bff2d38a60b108fb/orxxe.Coursera..Virology.II.How.Viruses.Cause.Disease.part08.rar
https://rapidgator.net/file/455c0a4c1122427efc88f6d57e55e096/orxxe.Coursera..Virology.II.How.Viruses.Cause.Disease.part09.rar


Sponsored High Speed Downloads
5934 dl's @ 3082 KB/s
Download Now [Full Version]
7463 dl's @ 3273 KB/s
Download Link 1 - Fast Download
9977 dl's @ 2670 KB/s
Download Mirror - Direct Download



Search More...
Coursera Virology II How Viruses Cause Disease

Search free ebooks in ebookee.com!


Links
Download this book

No active download links here?
Please check the description for download links if any or do a search to find alternative books.


Related Books


Comments

No comments for "Coursera Virology II How Viruses Cause Disease".


    Add Your Comments
    1. Download links and password may be in the description section, read description carefully!
    2. Do a search to find mirrors if no download links or dead links.
    Back to Top